subtitle Skyscraper (2018) [WEBRip] [720p] [YTS.AM] | Mireille Enos | Ethnicity Identity
peekbrush.us - The Largest Bittorent System Login   |    Register
Latest Articles
Most searched
Hot torrents
Movie Torrents
View Torrent Info: Mamma Mia! Here We Go Again (2018) [720p] [YTS] [YIFY]
View Torrent Info: Teen Titans Go! To the Movies (2018) [720p] [YTS] [YIFY]
View Torrent Info: Sorry to Bother You (2018) [720p] [YTS] [YIFY]
View Torrent Info: LEGO DC Comics Super Heroes: Aquaman - Rage of Atlantis (2018) [720p] [YTS] [YIFY]
View Torrent Info: Brothers' Nest (2018) [720p] [YTS] [YIFY]
View Torrent Info: 22 July (2018) [720p] [YTS] [YIFY]
View Torrent Info: Sorry to Bother You (2018) [720p] [YTS] [YIFY]
View Torrent Info: The Witch Files (2018) [720p] [YTS] [YIFY]
View Torrent Info: Raazi (2018) [720p] [YTS] [YIFY]
View Torrent Info: Between Worlds (2018) [720p] [YTS] [YIFY]
Hot torrents
TV Torrents
View Torrent Info: The.Big.Bang.Theory.S12E04.HDTV.x264-SVA[eztv]
View Torrent Info: the.last.ship.s05e05.webrip.x264-tbs[eztv]
View Torrent Info: Manifest.S01E03.HDTV.x264-SVA[eztv]
View Torrent Info: The.Flash.2014.S05E01.HDTV.x264-SVA[eztv]
View Torrent Info: Chicago.Fire.S07E03.HDTV.x264-PHOENiX[eztv]
View Torrent Info: lethal.weapon.s03e03.web.x264-tbs[eztv]
View Torrent Info: Modern.Family.S10E03.HDTV.x264-KILLERS[eztv]
View Torrent Info: Greys.Anatomy.S15E04.HDTV.x264-KILLERS[eztv]
View Torrent Info: star.wars.resistance.s01e01.web.x264-tbs[eztv]
View Torrent Info: Madam.Secretary.S05E01.HDTV.x264-SVA[eztv]
peekbrush.us > Categories > Movies torrents > h.264/x264 torrents


Browse Movies torrents

18+ Space Babes From Outer Space 2018 UNCENSORED Movies BRRip x264 5.1 with Sample ☻rDX☻ torrent



Download torrent: Download 18+ Space Babes From Outer Space 2018 UNCENSORED Movies BRRip x264 5.1 with Sample ☻rDX☻ torrent Magnet link Bookmark Torrent: 18+ Space Babes From Outer Space 2018 UNCENSORED Movies BRRip x264 5.1 with Sample ☻rDX☻ 18+ Space Babes From Outer Space 2018 UNCENSORED Movies BRRip x264 5.1 with Sample ☻rDX☻ torrent | if not working, try instead: Magnet Link
Info hash: F5643706C545BB88780ECBD8115CB46F12DFC8E1
Category: Categories > Movies torrents > h.264/x264 torrents
Trackers:
14    View all torrent trackers >
Health:
 seeds: 0 ,  leechers: 0 |  Update >
Torrent language:  
Total Size: 926.60 MB
Torrent status: Added by trusted uploader Added by trusted uploader Trusted Uploader Site Friend Superman Sun
Uploader: Trusted Uploader Site Friend Superman Sun
Torrent added: 2018-10-11 08:41:57
 

Download 18+ Space Babes From Outer Space 2018 UNCENSORED Movies BRRip x264 5.1 with Sample ☻rDX☻ torrent if not working, try downloading torrent using Download 18+ Space Babes From Outer Space 2018 UNCENSORED Movies BRRip x264 5.1 with Sample ☻rDX☻ via Magnet Link




Torrent Description

18+ Space Babes From Outer Space 2018 UNCENSORED Movies BRRip x264 5.1 with Sample ☻rDX☻
===============================================================================================

SCREEN SHOTS:



or

http://iphonehosting.eu/2018/10/selling/1.html

File size : 915 MiB
Duration : 1 h 21 min
Overall bit rate mode : Constant
Overall bit rate : 1 568 kb/s
Movie name : 18+ Space Babes From Outer Space 2018 UNCENSORED Movies BRRip x264 5.1 ☻rDX☻

Video
ID : 2
Format : AVC
Format/Info : Advanced Video Codec
Format profile : [email protected]
Format settings, CABAC : Yes
Format settings, ReFrames : 2 frames
Format settings, GOP : M=1, N=12
Codec ID : V_MPEG4/ISO/AVC
Duration : 1 h 21 min
Bit rate mode : Constant
Bit rate : 1 121 kb/s
Width : 720 pixels
Height : 304 pixels
Display aspect ratio : 2.35:1
Frame rate mode : Constant
Frame rate : 23.976 FPS
Color space : YUV
Chroma subsampling : 4:2:0
Bit depth : 8 bits
Scan type : Progressive
Bits/(Pixel*Frame) : 0.214
Stream size : 636 MiB (69%)
Title : ☻rDX☻
Default : Yes
Forced : No

Audio
ID : 1
Format : AC-3
Format/Info : Audio Coding 3
Mode extension : CM (complete main)
Format settings, Endianness : Big
Codec ID : A_AC3
Duration : 1 h 21 min
Bit rate mode : Constant
Bit rate : 448 kb/s
Channel(s) : 6 channels
Channel positions : Front: L C R, Side: L R, LFE
Sampling rate : 48.0 kHz
Frame rate : 31.250 FPS (1536 spf)
Bit depth : 16 bits
Compression mode : Lossy
Stream size : 262 MiB (29%)
Title : ☻rDX☻
Default : Yes
Forced : No

http://www.imdb.com/title/tt6644286



#nehalpuja -> To avoid fakes, ALWAYS check that the torrent was added on peekbrush.us by nehalpuja

http://peekbrush.us/



Download 18+ Space Babes From Outer Space 2018 UNCENSORED Movies BRRip x264 5.1 with Sample ☻rDX☻ torrent


Comments (please add your comment)
No comments



Home - Browse Torrents - Upload Torrent - Stat - Forum - FAQ - Login
peekbrush.us is in compliance with copyrights
2006-2018 peekbrush.us