Eps23 The Flash 3 | 360 DVDRIP | Phim Lãng Mạn
peekbrush.us - The Largest Bittorent System Login   |    Register
Latest Articles
Most searched
Hot torrents
Movie Torrents
View Torrent Info: Mamma Mia! Here We Go Again (2018) [720p] [YTS] [YIFY]
View Torrent Info: Teen Titans Go! To the Movies (2018) [720p] [YTS] [YIFY]
View Torrent Info: Sorry to Bother You (2018) [720p] [YTS] [YIFY]
View Torrent Info: LEGO DC Comics Super Heroes: Aquaman - Rage of Atlantis (2018) [720p] [YTS] [YIFY]
View Torrent Info: Brothers' Nest (2018) [720p] [YTS] [YIFY]
View Torrent Info: 22 July (2018) [720p] [YTS] [YIFY]
View Torrent Info: Sorry to Bother You (2018) [720p] [YTS] [YIFY]
View Torrent Info: The Witch Files (2018) [720p] [YTS] [YIFY]
View Torrent Info: Raazi (2018) [720p] [YTS] [YIFY]
View Torrent Info: Between Worlds (2018) [720p] [YTS] [YIFY]
Hot torrents
TV Torrents
View Torrent Info: The.Big.Bang.Theory.S12E04.HDTV.x264-SVA[eztv]
View Torrent Info: the.last.ship.s05e05.webrip.x264-tbs[eztv]
View Torrent Info: Manifest.S01E03.HDTV.x264-SVA[eztv]
View Torrent Info: The.Flash.2014.S05E01.HDTV.x264-SVA[eztv]
View Torrent Info: Chicago.Fire.S07E03.HDTV.x264-PHOENiX[eztv]
View Torrent Info: lethal.weapon.s03e03.web.x264-tbs[eztv]
View Torrent Info: Modern.Family.S10E03.HDTV.x264-KILLERS[eztv]
View Torrent Info: Greys.Anatomy.S15E04.HDTV.x264-KILLERS[eztv]
View Torrent Info: star.wars.resistance.s01e01.web.x264-tbs[eztv]
View Torrent Info: Madam.Secretary.S05E01.HDTV.x264-SVA[eztv]
peekbrush.us > Categories > Movies torrents > h.264/x264 torrents


Browse Movies torrents

Space Babes From Outer Space 2018 BRRip x264 [MW] torrent



Download torrent: Download Space Babes From Outer Space 2018 BRRip x264 [MW] torrent Magnet link Bookmark Torrent: Space Babes From Outer Space 2018 BRRip x264 [MW] Space Babes From Outer Space 2018 BRRip x264 [MW] torrent | if not working, try instead: Magnet Link
Info hash: E373BF496DD99882CCBC3A1DE731C689B667290D
Category: Categories > Movies torrents > h.264/x264 torrents
Trackers:
9    View all torrent trackers >
Health:
 seeds: 22 ,  leechers: 24 |  Update >
Torrent language:  
Total Size: 803.50 MB
Torrent status: Added by trusted uploader Added by trusted uploader Trusted Uploader Site Friend Superman Sun
Uploader: Trusted Uploader Site Friend Superman Sun
Torrent added: 2018-10-11 14:21:48
 

Download Space Babes From Outer Space 2018 BRRip x264 [MW] torrent if not working, try downloading torrent using Download Space Babes From Outer Space 2018 BRRip x264 [MW] via Magnet Link




Torrent Description





General
Format : Matroska
Format version : Version 4 / Version 2
File size : 804 MiB
Duration : 1 h 21 min
Overall bit rate : 1 376 kb/s

Video
ID : 1
Format : AVC
Format/Info : Advanced Video Codec
Format profile : [email protected]
Format settings : CABAC / 4 Ref Frames
Format settings, CABAC : Yes
Format settings, RefFrames : 4 frames
Codec ID : V_MPEG4/ISO/AVC
Duration : 1 h 21 min
Bit rate : 1 200 kb/s
Width : 720 pixels
Height : 304 pixels
Display aspect ratio : 2.35:1
Frame rate mode : Constant
Frame rate : 23.976 (24000/1001) FPS
Color space : YUV
Chroma subsampling : 4:2:0
Bit depth : 8 bits
Scan type : Progressive
Bits/(Pixel*Frame) : 0.229
Stream size : 690 MiB (86%)
Writing library : x264 core 155 r2901 7d0ff22
Default : Yes
Forced : No

Audio
ID : 2
Format : AAC
Format/Info : Advanced Audio Codec
Format profile : LC
Codec ID : A_AAC-2
Duration : 1 h 21 min
Bit rate : 192 kb/s
Channel(s) : 2 channels
Channel positions : Front: L R
Sampling rate : 48.0 kHz
Frame rate : 46.875 FPS (1024 SPF)
Compression mode : Lossy
Stream size : 112 MiB (14%)
Language : English
Default : Yes
Forced : No


Click To Enlarge Image









#moviezworldz -> To avoid fakes, ALWAYS check that the torrent was added on peekbrush.us by moviezworldz

http://peekbrush.us/



Download Space Babes From Outer Space 2018 BRRip x264 [MW] torrent


Comments (please add your comment)
No comments



Home - Browse Torrents - Upload Torrent - Stat - Forum - FAQ - Login
peekbrush.us is in compliance with copyrights
2006-2018 peekbrush.us