subtitle Skyscraper (2018) [WEBRip] [720p] [YTS.AM] | Mireille Enos | Ethnicity Identity
peekbrush.us - The Largest Bittorent System Login   |    Register
Latest Articles
Most searched
Hot torrents
Movie Torrents
View Torrent Info: Mamma Mia! Here We Go Again (2018) [720p] [YTS] [YIFY]
View Torrent Info: Teen Titans Go! To the Movies (2018) [720p] [YTS] [YIFY]
View Torrent Info: Sorry to Bother You (2018) [720p] [YTS] [YIFY]
View Torrent Info: Brothers' Nest (2018) [720p] [YTS] [YIFY]
View Torrent Info: The Witch Files (2018) [720p] [YTS] [YIFY]
View Torrent Info: 22 July (2018) [720p] [YTS] [YIFY]
View Torrent Info: LEGO DC Comics Super Heroes: Aquaman - Rage of Atlantis (2018) [720p] [YTS] [YIFY]
View Torrent Info: Sorry to Bother You (2018) [720p] [YTS] [YIFY]
View Torrent Info: Raazi (2018) [720p] [YTS] [YIFY]
View Torrent Info: Between Worlds (2018) [720p] [YTS] [YIFY]
Hot torrents
TV Torrents
View Torrent Info: The.Big.Bang.Theory.S12E04.HDTV.x264-SVA[eztv]
View Torrent Info: the.last.ship.s05e05.webrip.x264-tbs[eztv]
View Torrent Info: Manifest.S01E03.HDTV.x264-SVA[eztv]
View Torrent Info: The.Flash.2014.S05E01.HDTV.x264-SVA[eztv]
View Torrent Info: Chicago.Fire.S07E03.HDTV.x264-PHOENiX[eztv]
View Torrent Info: lethal.weapon.s03e03.web.x264-tbs[eztv]
View Torrent Info: Modern.Family.S10E03.HDTV.x264-KILLERS[eztv]
View Torrent Info: Greys.Anatomy.S15E04.HDTV.x264-KILLERS[eztv]
View Torrent Info: star.wars.resistance.s01e01.web.x264-tbs[eztv]
View Torrent Info: Madam.Secretary.S05E01.HDTV.x264-SVA[eztv]
peekbrush.us > Categories > Movies torrents > h.264/x264 torrents


Browse Movies torrents

[email protected] torrent



Download torrent: Download Reprisal.2018.BDRip.x264.AC3-iM@X torrent Magnet link Bookmark Torrent: Reprisal.2018.BDRip.x264.AC3-iM@X [email protected] torrent | if not working, try instead: Magnet Link
Info hash: 3C9887AF3517D173F8E6B346A28764BE32331C76
Category: Categories > Movies torrents > h.264/x264 torrents
Trackers:
1    View all torrent trackers >
Health:
 seeds: 9 ,  leechers: 6 |  Update >
Torrent language:  
Total Size: 983.30 MB
Torrent status: Added by trusted uploader Added by trusted uploader Trusted Uploader Site Friend Superman Sun
Uploader: Trusted Uploader Site Friend Superman Sun
Torrent added: 2018-10-11 15:53:48
 

Download Reprisal.2018.BDRip.x264.AC3-iM@X torrent if not working, try downloading torrent using Download Reprisal.2018.BDRip.x264.AC3-iM@X via Magnet Link




Torrent Description

Language: English

Genre: Action | Crime | Thriller

A bank manager haunted by a violent heist that took the life of a coworker teams up with his ex-cop neighbor to bring down the assailant, initiating an explosive counterattack that brings all three men to the breaking point.



Code:

Format : Matroska
Format version : Version 4 / Version 2
File size : 983 MiB
Duration : 1 h 29 min
Overall bit rate : 1 542 kb/s
Movie name : www.MOVEY.CC
Encoded date : UTC 2018-10-11 13:20:49
Writing application : mkvmerge v19.0.0 ('Brave Captain') 64-bit
Writing library : libebml v1.3.5 + libmatroska v1.4.8

Video
ID : 1
Format : AVC
Format/Info : Advanced Video Codec
Format profile : [email protected]
Format settings : CABAC / 4 Ref Frames
Format settings, CABAC : Yes
Format settings, RefFrames : 4 frames
Codec ID : V_MPEG4/ISO/AVC
Duration : 1 h 29 min
Bit rate : 1 092 kb/s
Width : 720 pixels
Height : 392 pixels
Display aspect ratio : 1.85:1
Frame rate mode : Constant
Frame rate : 23.976 (24000/1001) FPS
Color space : YUV
Chroma subsampling : 4:2:0
Bit depth : 8 bits
Scan type : Progressive
Bits/(Pixel*Frame) : 0.161
Stream size : 696 MiB (71%)
Title : www.MOVEY.CC
Writing library : x264 core 155 r2901 7d0ff22
Encoding settings : cabac=1 / ref=3 / deblock=1:0:0 / analyse=0x3:0x113 / me=hex / subme=7 / psy=1 / psy_rd=1.00:0.00 / mixed_ref=1 / me_range=16 / chroma_me=1 / trellis=1 / 8x8dct=1 / cqm=0 / deadzone=21,11 / fast_pskip=1 / chroma_qp_offset=-2 / threads=12 / lookahead_threads=2 / sliced_threads=0 / nr=0 / decimate=1 / interlaced=0 / bluray_compat=0 / constrained_intra=0 / bframes=3 / b_pyramid=2 / b_adapt=1 / b_bias=0 / direct=1 / weightb=1 / open_gop=0 / weightp=2 / keyint=240 / keyint_min=23 / scenecut=40 / intra_refresh=0 / rc_lookahead=40 / rc=2pass / mbtree=1 / bitrate=1092 / ratetol=1.0 / qcomp=0.60 / qpmin=0 / qpmax=69 / qpstep=4 / cplxblur=20.0 / qblur=0.5 / ip_ratio=1.40 / aq=1:1.00
Default : Yes
Forced : No

Audio
ID : 2
Format : AC-3
Format/Info : Audio Coding 3
Codec ID : A_AC3
Duration : 1 h 29 min
Bit rate mode : Constant
Bit rate : 448 kb/s
Channel(s) : 6 channels
Channel positions : Front: L C R, Side: L R, LFE
Sampling rate : 48.0 kHz
Frame rate : 31.250 FPS (1536 SPF)
Bit depth : 16 bits
Compression mode : Lossy
Stream size : 286 MiB (29%)
Title : www.MOVEY.CC
Language : English
Service kind : Complete Main
Default : Yes
Forced : No



#iMaX100 -> To avoid fakes, ALWAYS check that the torrent was added on peekbrush.us by iMaX100

http://peekbrush.us/



Download Reprisal.2018.BDRip.x264.AC3-iM@X torrent


Comments (please add your comment)
No comments



Home - Browse Torrents - Upload Torrent - Stat - Forum - FAQ - Login
peekbrush.us is in compliance with copyrights
2006-2018 peekbrush.us