Read more | Fortnite Battle Royale: Diese 7 Tipps sollten Einsteiger kennen Schneller episch siegen Kämpft im Battle Royale-Modus des Shooters Fortnite gegen 100 andere Gegner und den nahenden Sturm, um zu überleben. Mit diesen Einsteiger-Guide geben wir euch Tipps, damit ihr euch dem epischen ... | Watch Movie
peekbrush.us - The Largest Bittorent System Login   |    Register
Latest Articles
Most searched
Hot torrents
Movie Torrents
View Torrent Info: Mamma Mia! Here We Go Again (2018) [720p] [YTS] [YIFY]
View Torrent Info: Mamma Mia! Here We Go Again (2018) [720p] [YTS] [YIFY]
View Torrent Info: Apostle (2018) [720p] [YTS] [YIFY]
View Torrent Info: Blindspotting (2018) [720p] [YTS] [YIFY]
View Torrent Info: Teen Titans Go! To the Movies (2018) [720p] [YTS] [YIFY]
View Torrent Info: Sorry to Bother You (2018) [720p] [YTS] [YIFY]
View Torrent Info: I Still See You (2018) [720p] [YTS] [YIFY]
View Torrent Info: Look Away (2018) [720p] [YTS] [YIFY]
View Torrent Info: 22 July (2018) [720p] [YTS] [YIFY]
View Torrent Info: Sorry to Bother You (2018) [720p] [YTS] [YIFY]
Hot torrents
TV Torrents
View Torrent Info: The.Walking.Dead.S09E02.XviD-AFG[eztv]
View Torrent Info: Supergirl.S04E01.HDTV.x264-SVA[eztv]
View Torrent Info: Blindspot.S04E01.HDTV.x264-KILLERS[eztv]
View Torrent Info: The.Big.Bang.Theory.S12E04.HDTV.x264-SVA[eztv]
View Torrent Info: Manifest.S01E03.HDTV.x264-SVA[eztv]
View Torrent Info: The.Flash.2014.S05E01.HDTV.x264-SVA[eztv]
View Torrent Info: Chicago.Fire.S07E03.HDTV.x264-PHOENiX[eztv]
View Torrent Info: lethal.weapon.s03e03.web.x264-tbs[eztv]
View Torrent Info: Modern.Family.S10E03.HDTV.x264-KILLERS[eztv]
View Torrent Info: the.last.ship.s05e06.webrip.x264-tbs[eztv]
peekbrush.us > Categories > Movies torrents > h.264/x264 torrents


Browse Movies torrents

The Blueberry Hunt (2016)-720p Ori-DVDRip-x264 (HINDI-5.1)-{First On Net}-ESubs-1.9gb+=+=Movie Den=+=+ torrent



Download torrent: Download The Blueberry Hunt (2016)-720p Ori-DVDRip-x264 (HINDI-5.1)-{First On Net}-ESubs-1.9gb+=+=Movie Den=+=+ torrent Magnet link Bookmark Torrent: The Blueberry Hunt (2016)-720p Ori-DVDRip-x264 (HINDI-5.1)-{First On Net}-ESubs-1.9gb+=+=Movie Den=+=+ The Blueberry Hunt (2016)-720p Ori-DVDRip-x264 (HINDI-5.1)-{First On Net}-ESubs-1.9gb+=+=Movie Den=+=+ torrent | if not working, try instead: Magnet Link
Info hash: 114142109181A03FCCDC51B42CCC94A5FDF0F21D
Category: Categories > Movies torrents > h.264/x264 torrents
Trackers:
1    View all torrent trackers >
Health:
 seeds: 0 ,  leechers: 0 |  Update >
Total Size: 1.90 GB
Torrent status: Added by trusted uploader Added by trusted uploader Trusted Uploader Site Friend Superman Sun
Uploader: Trusted Uploader Site Friend Superman Sun
Torrent added: 2018-10-11 16:44:50
 

Download The Blueberry Hunt (2016)-720p Ori-DVDRip-x264 (HINDI-5.1)-{First On Net}-ESubs-1.9gb+=+=Movie Den=+=+ torrent if not working, try downloading torrent using Download The Blueberry Hunt (2016)-720p Ori-DVDRip-x264 (HINDI-5.1)-{First On Net}-ESubs-1.9gb+=+=Movie Den=+=+ via Magnet Link




Torrent Description

The Blueberry Hunt (2016)-720p Ori-DVDRip-x264 (HINDI-5.1)-{First On Net}-ESubs-1.9gb+=+=Movie Den=+=+




Movie File Details

Complete name                            : The Blueberry Hunt (2016)-720p Ori-DVDRip-x264 (HINDI-5.1)-{First On Net}-ESubs-1.9gb+=+=Movie Den=+=+
Format                                   : MPEG-4
Format profile                           : Base Media / Version 2
Codec ID                                 : mp42 (isom/iso2/avc1/mp41)
File size                                : 1.86 GiB
Duration                                 : 1 h 54 min
Overall bit rate                         : 2 339 kb/s
Writing application                      : HandBrake 0.10.1 2015030800

Video
ID                                       : 1
Format                                   : AVC
Format/Info                              : Advanced Video Codec
Format profile                           : [email protected]
Format settings                          : CABAC / 4 Ref Frames
Format settings, CABAC                   : Yes
Format settings, RefFrames               : 4 frames
Codec ID                                 : avc1
Codec ID/Info                            : Advanced Video Coding
Duration                                 : 1 h 54 min
Bit rate                                 : 1 886 kb/s
Width                                    : 720 pixels
Height                                   : 564 pixels
Display aspect ratio                     : 16:9
Original display aspect ratio            : 16:9
Frame rate mode                          : Constant
Frame rate                               : 25.000 FPS
Color space                              : YUV
Chroma subsampling                       : 4:2:0
Bit depth                                : 8 bits
Scan type                                : Progressive
Bits/(Pixel*Frame)                       : 0.186
Stream size                              : 1.50 GiB (81%)
Writing library                          : x264 core 142 r2479 dd79a61
Color range                              : Limited
Color primaries                          : BT.601 PAL
Transfer characteristics                 : BT.709
Matrix coefficients                      : BT.601
Menus                                    : 3

Audio
ID                                       : 2
Format                                   : AC-3
Format/Info                              : Audio Coding 3
Codec ID                                 : ac-3
Duration                                 : 1 h 54 min
Bit rate mode                            : Constant
Bit rate                                 : 448 kb/s
Channel(s)                               : 6 channels
Channel positions                        : Front: L C R, Side: L R, LFE
Sampling rate                            : 48.0 kHz
Frame rate                               : 31.250 FPS (1536 SPF)
Bit depth                                : 16 bits
Compression mode                         : Lossy
Stream size                              : 366 MiB (19%)
Title                                    : Surround / Surround
Language                                 : Hindi
Service kind                             : Complete Main
Default                                  : Yes
Alternate group                          : 1
Menus                                    : 3

Menu
ID                                       : 3
Codec ID                                 : text
Duration                                 : 1 h 54 min
Language                                 : English
Menu For                                 : 1,2
Duration_FirstFrame                      : 120
Duration_LastFrame                       : -51120
00:00:00.000                             : Chapter 1
00:05:00.120                             : Chapter 2
00:10:00.120                             : Chapter 3
00:15:00.120                             : Chapter 4
00:20:00.120                             : Chapter 5
00:25:00.120                             : Chapter 6
00:30:00.120                             : Chapter 7
00:35:00.120                             : Chapter 8
00:40:00.120                             : Chapter 9
00:45:00.120                             : Chapter 10
00:50:00.120                             : Chapter 11
00:55:00.120                             : Chapter 12
01:00:00.120                             : Chapter 13
01:05:00.120                             : Chapter 14
01:10:00.120                             : Chapter 15
01:15:00.120                             : Chapter 16
01:20:00.120                             : Chapter 17
01:25:00.120                             : Chapter 18
01:30:00.120                             : Chapter 19
01:35:00.120                             : Chapter 20
01:40:00.120                             : Chapter 21
01:45:00.120                             : Chapter 22
01:50:00.120                             : Chapter 23
Bit rate mode                            : VBR


Screen Shots












Please seed it for long.. so others can also have it.. ateast 1:1 ratio or else 48hrs .... thanks a lot..



#Suryadipta -> To avoid fakes, ALWAYS check that the torrent was added on peekbrush.us by Suryadipta

http://peekbrush.us/



Download The Blueberry Hunt (2016)-720p Ori-DVDRip-x264 (HINDI-5.1)-{First On Net}-ESubs-1.9gb+=+=Movie Den=+=+ torrent


Comments (please add your comment)
No comments



Home - Browse Torrents - Upload Torrent - Stat - Forum - FAQ - Login
peekbrush.us is in compliance with copyrights
2006-2018 peekbrush.us