Episode 25 | 248 PC Telecharger Monster Hunter XX – PC Gratuit Monster Hunter XX PC telecharger torrent La planification de Monster Hunter Generations a commencé... | Bitwa o ciężką wodę
peekbrush.us - The Largest Bittorent System Login   |    Register
Latest Articles
Most searched
Hot torrents
Movie Torrents
View Torrent Info: Mamma Mia! Here We Go Again (2018) [720p] [YTS] [YIFY]
View Torrent Info: Mamma Mia! Here We Go Again (2018) [720p] [YTS] [YIFY]
View Torrent Info: Apostle (2018) [720p] [YTS] [YIFY]
View Torrent Info: Teen Titans Go! To the Movies (2018) [720p] [YTS] [YIFY]
View Torrent Info: Sorry to Bother You (2018) [720p] [YTS] [YIFY]
View Torrent Info: LEGO DC Comics Super Heroes: Aquaman - Rage of Atlantis (2018) [720p] [YTS] [YIFY]
View Torrent Info: 22 July (2018) [720p] [YTS] [YIFY]
View Torrent Info: Sorry to Bother You (2018) [720p] [YTS] [YIFY]
View Torrent Info: I Still See You (2018) [720p] [YTS] [YIFY]
View Torrent Info: Brothers' Nest (2018) [720p] [YTS] [YIFY]
Hot torrents
TV Torrents
View Torrent Info: Blindspot.S04E01.HDTV.x264-KILLERS[eztv]
View Torrent Info: The.Big.Bang.Theory.S12E04.HDTV.x264-SVA[eztv]
View Torrent Info: the.last.ship.s05e05.webrip.x264-tbs[eztv]
View Torrent Info: Manifest.S01E03.HDTV.x264-SVA[eztv]
View Torrent Info: The.Flash.2014.S05E01.HDTV.x264-SVA[eztv]
View Torrent Info: Chicago.Fire.S07E03.HDTV.x264-PHOENiX[eztv]
View Torrent Info: lethal.weapon.s03e03.web.x264-tbs[eztv]
View Torrent Info: Modern.Family.S10E03.HDTV.x264-KILLERS[eztv]
View Torrent Info: Hawaii.Five-0.2010.S09E03.HDTV.x264-SVA[eztv]
View Torrent Info: Greys.Anatomy.S15E04.HDTV.x264-KILLERS[eztv]
peekbrush.us > Categories > Movies torrents > h.264/x264 torrents


Browse Movies torrents

Lazzaro.Felice.[Happy.as.Lazzaro].2018.iTALiAN.1080p.BRRip.x264.AC3.HORiZON-ArtSubs torrent



Download torrent: Download Lazzaro.Felice.[Happy.as.Lazzaro].2018.iTALiAN.1080p.BRRip.x264.AC3.HORiZON-ArtSubs torrent Magnet link Bookmark Torrent: Lazzaro.Felice.[Happy.as.Lazzaro].2018.iTALiAN.1080p.BRRip.x264.AC3.HORiZON-ArtSubs Lazzaro.Felice.[Happy.as.Lazzaro].2018.iTALiAN.1080p.BRRip.x264.AC3.HORiZON-ArtSubs torrent | if not working, try instead: Magnet Link
Info hash: 1841D5BA97DD4DAC7A4117962A9AD4626E58BCF9
Category: Categories > Movies torrents > h.264/x264 torrents
Trackers:
4    View all torrent trackers >
Health:
 seeds: 0 ,  leechers: 0 |  Update >
Total Size: 2.60 GB
Torrent status: Added by trusted uploader Added by trusted uploader Trusted Uploader Site Friend Superman Sun
Uploader: Trusted Uploader Site Friend Superman Sun
Torrent added: 2018-10-11 21:42:26
 

Download Lazzaro.Felice.[Happy.as.Lazzaro].2018.iTALiAN.1080p.BRRip.x264.AC3.HORiZON-ArtSubs torrent if not working, try downloading torrent using Download Lazzaro.Felice.[Happy.as.Lazzaro].2018.iTALiAN.1080p.BRRip.x264.AC3.HORiZON-ArtSubs via Magnet Link




Torrent Description

Release: Lazzaro.Felice.[Happy.as.Lazzaro].2018.iTALiAN.1080p.BRRip.x264.AC3.HORiZON-ArtSubs



IMDB: http://www.imdb.com/title/tt6752992

Subtitle: English

Plot: This is the tale of a meeting between Lazzaro, a young peasant so good that he is often mistaken for simple-minded, and Tancredi, a young nobleman cursed by his imagination. Life in their isolated pastoral village Inviolata is dominated by the terrible Marchesa Alfonsina de Luna, the queen of cigarettes. A loyal bond is sealed when Tancredi asks Lazzaro to help him orchestrate his own kidnapping. This strange and improbable alliance is a revelation for Lazzaro. A friendship so precious that it will travel in time and transport Lazzaro in search of Tancredi. His first time in the big city, Lazzaro is like a fragment of the past lost in the modern world.


Lazzaro.Felice.[Happy.as.Lazzaro].2018.iTALiAN.1080p.BRRip.x264.AC3.HORiZON-ArtSubs.mkv
Format : Matroska
Format version : Version 4 / Version 2
File size : 2.63 GiB
Duration : 2 h 7 min
Overall bit rate : 2 951 kb/s
Encoded date : UTC 2018-10-11T09:52:51Z
Writing application : HandBrake 1.0.7 2017040900
Writing library : Lavf57.7.2

Video
ID : 1
Format : AVC
Format/Info : Advanced Video Codec
Format profile : [email protected]
Format settings : CABAC / 4 Ref Frames
Format settings, CABAC : Yes
Format settings, ReFrames : 4 frames
Codec ID : V_MPEG4/ISO/AVC
Duration : 2 h 7 min
Bit rate : 2 500 kb/s
Width : 1 754 pixels
Height : 1 074 pixels
Display aspect ratio : 16:10
Frame rate mode : Constant
Frame rate : 23.976 (24000/1001) FPS
Color space : YUV
Chroma subsampling : 4:2:0
Bit depth : 8 bits
Scan type : Progressive
Bits/(Pixel*Frame) : 0.055
Stream size : 2.18 GiB (83%)
Writing library : x264 core 148 r2708 86b7198
Encoding settings : cabac=1 / ref=4 / deblock=1:-1:-1 / analyse=0x3:0x133 / me=umh / subme=10 / psy=1 / psy_rd=1.00:0.15 / mixed_ref=1 / me_range=24 / chroma_me=1 / trellis=2 / 8x8dct=1 / cqm=0 / deadzone=21,11 / fast_pskip=1 / chroma_qp_offset=-3 / threads=6 / lookahead_threads=1 / sliced_threads=0 / nr=0 / decimate=1 / interlaced=0 / bluray_compat=0 / constrained_intra=0 / bframes=8 / b_pyramid=2 / b_adapt=2 / b_bias=0 / direct=3 / weightb=1 / open_gop=0 / weightp=2 / keyint=240 / keyint_min=24 / scenecut=40 / intra_refresh=0 / rc_lookahead=60 / rc=2pass / mbtree=1 / bitrate=2500 / ratetol=1.0 / qcomp=0.60 / qpmin=0 / qpmax=69 / qpstep=4 / cplxblur=20.0 / qblur=0.5 / vbv_maxrate=62500 / vbv_bufsize=78125 / nal_hrd=none / filler=0 / ip_ratio=1.40 / aq=1:1.00
Default : Yes
Forced : No
Color range : Limited
Color primaries : BT.709
Transfer characteristics : BT.709
Matrix coefficients : BT.709

Audio
ID : 2
Format : AC-3
Format/Info : Audio Coding 3
Codec ID : A_AC3
Duration : 2 h 7 min
Bit rate mode : Constant
Bit rate : 448 kb/s
Channel(s) : 6 channels
Channel positions : Front: L C R, Side: L R, LFE
Sampling rate : 48.0 kHz
Frame rate : 31.250 FPS (1536 SPF)
Bit depth : 16 bits
Compression mode : Lossy
Delay relative to video : -5 ms
Stream size : 409 MiB (15%)
Title : Surround
Language : Italian
Service kind : Complete Main
Default : Yes
Forced : No

Text #1
ID : 3
Format : ASS
Codec ID : S_TEXT/ASS
Codec ID/Info : Advanced Sub Station Alpha
Compression mode : Lossless
Language : English
Default : No
Forced : No

Text #2
ID : 4
Format : ASS
Codec ID : S_TEXT/ASS
Codec ID/Info : Advanced Sub Station Alpha
Compression mode : Lossless
Language : English
Default : No
Forced : No


SCREENSHOTS:






#m1337e -> To avoid fakes, ALWAYS check that the torrent was added on peekbrush.us by m1337e

http://peekbrush.us/



Download Lazzaro.Felice.[Happy.as.Lazzaro].2018.iTALiAN.1080p.BRRip.x264.AC3.HORiZON-ArtSubs torrent


Comments (please add your comment)
No comments



Home - Browse Torrents - Upload Torrent - Stat - Forum - FAQ - Login
peekbrush.us is in compliance with copyrights
2006-2018 peekbrush.us