Contactez-nous | Princess Lover! | FinePrint 9.25 (PC)
peekbrush.us - The Largest Bittorent System Login   |    Register
Latest Articles
Most searched
Hot torrents
Movie Torrents
View Torrent Info: Mamma Mia! Here We Go Again (2018) [720p] [YTS] [YIFY]
View Torrent Info: Sorry to Bother You (2018) [720p] [YTS] [YIFY]
View Torrent Info: Teen Titans Go! To the Movies (2018) [720p] [YTS] [YIFY]
View Torrent Info: The Witch Files (2018) [720p] [YTS] [YIFY]
View Torrent Info: Brothers' Nest (2018) [720p] [YTS] [YIFY]
View Torrent Info: 22 July (2018) [720p] [YTS] [YIFY]
View Torrent Info: Sorry to Bother You (2018) [720p] [YTS] [YIFY]
View Torrent Info: Between Worlds (2018) [720p] [YTS] [YIFY]
View Torrent Info: Never Goin' Back (2018) [720p] [YTS] [YIFY]
View Torrent Info: Malevolent (2018) [720p] [YTS] [YIFY]
Hot torrents
TV Torrents
View Torrent Info: the.last.ship.s05e05.webrip.x264-tbs[eztv]
View Torrent Info: Manifest.S01E03.HDTV.x264-SVA[eztv]
View Torrent Info: The.Flash.2014.S05E01.HDTV.x264-SVA[eztv]
View Torrent Info: Chicago.Fire.S07E03.HDTV.x264-PHOENiX[eztv]
View Torrent Info: The.Big.Bang.Theory.S12E04.HDTV.x264-SVA[eztv]
View Torrent Info: lethal.weapon.s03e03.web.x264-tbs[eztv]
View Torrent Info: Modern.Family.S10E03.HDTV.x264-KILLERS[eztv]
View Torrent Info: Greys.Anatomy.S15E04.HDTV.x264-KILLERS[eztv]
View Torrent Info: star.wars.resistance.s01e01.web.x264-tbs[eztv]
View Torrent Info: Madam.Secretary.S05E01.HDTV.x264-SVA[eztv]
peekbrush.us > Categories > Movies torrents > Dubbed /Dual Audio torrents


Browse Movies torrents

[MoviesJug.Net] BHARAT The Great Leader 2018 Official Hindi Dubbed Trailer 1080p,720p,480p,360p Mahesh Babu torrent



Download torrent: Download [MoviesJug.Net] BHARAT  The Great Leader 2018 Official Hindi Dubbed Trailer 1080p,720p,480p,360p Mahesh Babu torrent Magnet link Bookmark Torrent: [MoviesJug.Net] BHARAT  The Great Leader 2018 Official Hindi Dubbed Trailer 1080p,720p,480p,360p Mahesh Babu [MoviesJug.Net] BHARAT The Great Leader 2018 Official Hindi Dubbed Trailer 1080p,720p,480p,360p Mahesh Babu torrent | if not working, try instead: Magnet Link
Info hash: 449199B9CB495566137D29230885A09491514F6A
Category: Categories > Movies torrents > Dubbed /Dual Audio torrents
Trackers:
50    View all torrent trackers >
Health:
 seeds: 80 ,  leechers: 6 |  Update >
Total Size: 38.40 MB
Torrent status: Added by trusted uploader Added by trusted uploader Trusted Uploader Site Friend Superman Sun
Uploader: Trusted Uploader Site Friend Superman Sun
Torrent added: 2018-10-12 01:58:29
 

Download [MoviesJug.Net] BHARAT  The Great Leader 2018 Official Hindi Dubbed Trailer 1080p,720p,480p,360p Mahesh Babu torrent if not working, try downloading torrent using Download [MoviesJug.Net] BHARAT  The Great Leader 2018 Official Hindi Dubbed Trailer 1080p,720p,480p,360p Mahesh Babu via Magnet Link




Torrent Description









VISIT OUR SITE==}

http://moviesjug.net/



SCREENSHOTS









MEDIA INFO




General
BHARAT The Great Leader 2018 [MoviesJug.Net] Official Hindi Dubbed Trailer 1080p Mahesh Babu.mkv
Format : Matroska
Format version : Version 4 / Version 2
File size : 15.0 MiB
Duration : 2 min 4 s
Overall bit rate : 1 012 kb/s
Movie name : Downloaded From [MoviesJug.Net]

Video
ID : 1
Format : AVC
Format/Info : Advanced Video Codec
Format profile : [email protected]
Format settings : CABAC / 3 Ref Frames
Format settings, CABAC : Yes
Format settings, RefFrames : 3 frames
Codec ID : V_MPEG4/ISO/AVC
Duration : 2 min 4 s
Bit rate : 882 kb/s
Width : 1 920 pixels
Height : 1 080 pixels
Display aspect ratio : 16:9
Frame rate mode : Constant
Frame rate : 30.000 FPS
Color space : YUV
Chroma subsampling : 4:2:0
Bit depth : 8 bits
Scan type : Progressive
Bits/(Pixel*Frame) : 0.014
Stream size : 13.1 MiB (87%)
Title : Downloaded From [MoviesJug.Net]
Language : Hindi
Default : Yes
Forced : No
Color range : Limited
Color primaries : BT.709
Transfer characteristics : BT.709
Matrix coefficients : BT.601

Audio
ID : 2
Format : AAC
Format/Info : Advanced Audio Codec
Format profile : LC
Codec ID : A_AAC-2
Duration : 2 min 4 s
Bit rate : 128 kb/s
Channel(s) : 2 channels
Channel positions : Front: L R
Sampling rate : 44.1 kHz
Frame rate : 43.066 FPS (1024 SPF)
Compression mode : Lossy
Stream size : 1.90 MiB (13%)
Title : Downloaded From [MoviesJug.Net]
Language : Hindi
Default : Yes
Forced : No



#Moviesjug -> To avoid fakes, ALWAYS check that the torrent was added on peekbrush.us by Moviesjug

http://peekbrush.us/



Download [MoviesJug.Net] BHARAT  The Great Leader 2018 Official Hindi Dubbed Trailer 1080p,720p,480p,360p Mahesh Babu torrent


Comments (please add your comment)
No comments



Home - Browse Torrents - Upload Torrent - Stat - Forum - FAQ - Login
peekbrush.us is in compliance with copyrights
2006-2018 peekbrush.us